<?xml version="1.0" standalone="no"?>
<!DOCTYPE svg PUBLIC "-//W3C//DTD SVG 1.1//EN" "http://www.w3.org/Graphics/SVG/1.1/DTD/svg11.dtd">
<svg xmlns="http://www.w3.org/2000/svg">
<metadata>Generated by Fontastic.me</metadata>
<defs>
<font id="liz-minelli" horiz-adv-x="512">
<font-face font-family="liz-minelli" units-per-em="512" ascent="480" descent="-32"/>
<missing-glyph horiz-adv-x="512" />

<glyph glyph-name="paypal" unicode="&#97;" d="M401 252c-2-7-7-10-14-10-6-1-11 5-8 11 3 5 12 6 17 6l6 0c0-2-1-4-1-7m-2 55c-13 0-23-3-31-5l-2-20c4 2 16 6 26 6 10 0 16-2 14-11-30 0-50-6-54-25-6-34 30-33 45-18l-2-8 27 0 12 53c4 23-16 28-35 28m57 21l-22-102 27 0 23 102z m-125-35c-2-8-10-14-17-14l-14 0 6 28 15 0c7 0 11-6 10-14m1 35l-50 0-22-102 29 0 7 33 21 0c20 0 37 13 41 34 5 24-12 35-26 35m-191-76c-2-7-8-10-15-10-5-1-10 5-7 11 3 5 12 6 16 6l7 0c-1-2-1-4-1-7m-3 55c-12 0-22-3-30-5l-2-20c4 2 16 6 26 6 10 0 16-2 14-11-30 0-50-6-54-25-6-34 30-33 44-18l-1-8 26 0 12 53c5 23-16 28-35 28m46-2l27 0 4-47 27 47 27 0-63-113-30 0 19 33z m-113-12c-2-8-9-14-17-14l-13 0 6 28 14 0c7 0 12-6 10-14m1 35l-50 0-22-102 29 0 7 33 21 0c20 0 37 13 42 34 5 24-12 35-27 35m418-13l0 12-5 0 0 2 11 0 0-2-4 0 0-12z m8 0l0 14 3 0 3-10c0-1 0-2 0-2 1 0 1 1 1 2l3 10 3 0 0-14-2 0 0 11-4-11-2 0-3 11 0-11z"/>
<glyph glyph-name="pinterest" unicode="&#98;" d="M461 334c0 92-77 178-193 178-144 0-217-106-217-194 0-53 20-101 62-118 7-3 14 0 16 7 1 6 4 20 6 25 2 8 1 11-4 18-13 14-21 33-21 61 0 78 58 148 150 148 82 0 127-51 127-119 0-89-39-165-97-165-32 0-55 27-48 60 9 39 27 82 27 110 0 25-13 47-41 47-32 0-59-35-59-81 0-29 10-49 10-49 0 0-33-144-39-169-5-23-6-48-5-69 2-19 20-35 37-14 11 18 23 42 29 65 4 14 22 85 22 85 10-20 41-38 74-38 97 0 164 91 164 212"/>
<glyph glyph-name="search" unicode="&#99;" d="M203 125c-101 0-184 83-184 184 0 101 83 184 184 184 101 0 184-83 184-184 0-101-83-184-184-184m287-109l-143 150c36 36 59 87 59 143 0 112-91 203-203 203-112 0-203-91-203-203 0-112 91-203 203-203 49 0 94 18 129 47l144-150c2-2 5-3 7-3 3 0 5 1 7 3 4 3 4 10 0 13"/>
<glyph glyph-name="tel-icon" unicode="&#100;" d="M22 473c-4-4-7-8-10-11-17-17-16-62 4-113 24-65 72-135 135-198 63-63 133-111 197-135 52-20 97-21 114-4 3 3 7 6 10 10 19 18 41 38 40 61-1 16-12 32-34 50-65 52-83 34-113 3l-6-6c-14-14-38-11-69 9-22 15-50 38-81 70-78 78-103 126-79 150l6 6c31 30 49 48-3 113-18 22-34 33-50 34-23 0-43-21-61-39z"/>
<glyph glyph-name="twitter" unicode="&#101;" d="M512 412c-19-8-39-13-60-16 21 13 38 33 46 57-20-12-43-20-67-25-19 20-46 33-77 33-58 0-105-46-105-104 0-8 1-16 3-23-87 4-165 45-216 108-9-15-15-33-15-52 0-36 19-68 47-86-17 0-33 5-47 13 0-1 0-1 0-2 0-50 36-91 84-101-9-2-18-4-28-4-7 0-13 1-20 2 14-41 53-71 99-72-36-27-82-44-131-44-8 0-17 1-25 2 46-30 102-47 161-47 193 0 299 158 299 294 0 5 0 9 0 14 20 14 38 33 52 53"/>
<glyph glyph-name="user" unicode="&#102;" d="M256 20c-130 0-235 49-235 108 0 46 63 86 153 101 24-15 52-24 82-24 30 0 58 9 82 24 90-15 154-55 154-101 0-59-106-108-236-108m-133 338c0 74 59 134 133 134 74 0 133-60 133-134 0-73-59-133-133-133-74 0-133 60-133 133m236-113c31 28 51 68 51 113 0 85-69 154-154 154-85 0-154-69-154-154 0-45 20-85 51-113-90-20-153-65-153-117 0-71 115-128 256-128 141 0 256 57 256 128 0 52-63 97-153 117"/>
<glyph glyph-name="mail-icon" unicode="&#103;" d="M483 297c-63-43-110-76-142-100-11-8-20-14-27-19-7-4-16-9-27-13-11-5-21-8-31-8l-1 0c-9 0-20 3-31 8-11 4-20 9-27 13-7 5-16 11-26 19-26 19-73 53-142 100-11 7-21 16-29 25l0-229c0-13 4-24 13-33 9-9 20-13 33-13l419 0c13 0 24 4 33 13 9 9 13 20 13 33l0 229c-8-9-18-17-28-25m-434 33c7-4 26-19 59-43 32-25 57-44 74-57 2-1 6-4 12-9 7-5 12-9 16-12 4-3 9-6 15-10 5-4 11-6 16-8 5-2 10-3 14-3l1 0c4 0 9 1 14 3 5 2 11 4 17 8 5 4 10 7 14 10 4 3 10 7 16 12 6 5 10 8 12 9 17 13 62 47 133 100 14 11 26 24 35 38 9 15 14 31 14 47 0 14-4 25-13 35-9 10-20 14-33 14l-419 0c-15 0-26-5-34-16-8-10-12-24-12-40 0-13 5-27 16-42 10-15 21-27 33-36"/>
<glyph glyph-name="instagram" unicode="&#105;" d="M379 430c-17 0-31-14-31-31 0-17 14-30 31-30 17 0 31 13 31 30 0 17-14 31-31 31m-123-251c-42 0-77 35-77 77 0 42 35 77 77 77 42 0 77-35 77-77 0-42-35-77-77-77m0 210c-73 0-133-60-133-133 0-73 60-133 133-133 73 0 133 60 133 133 0 73-60 133-133 133m200-260c0-40-33-73-73-73l-254 0c-40 0-73 33-73 73l0 254c0 40 33 73 73 73l254 0c40 0 73-33 73-73z m-73 383l-254 0c-71 0-129-58-129-129l0-254c0-71 58-129 129-129l254 0c71 0 129 58 129 129l0 254c0 71-58 129-129 129z"/>
<glyph glyph-name="wish-icon" unicode="&#107;" d="M258 33c0 0-4 0-4 0-128 59-221 152-247 251-14 53-4 102 23 142 43 56 105 60 148 46 37-13 63-39 76-69 14 33 40 56 76 69 43 14 106 10 149-46 30-40 36-89 23-142-23-96-116-192-248-251 4 0 4 0 4 0z m-123 429c-29 0-66-13-92-46-26-36-33-79-23-129 23-92 109-178 234-237 123 59 212 145 235 237 13 50 3 93-23 129-37 50-93 53-129 40-43-17-76-53-76-96 0-3-3-7-7-7-3 0-6 4-6 7 0 43-30 79-76 96-10 3-23 6-37 6z"/>
<glyph glyph-name="compare-icon" unicode="&#104;" d="M209 77c-80 22-136 94-136 176 0 96 75 174 168 182l-50-51c-3-3-3-5 0-8 0 0 2-3 5-3 3 0 3 0 5 3l64 64c3 3 3 8 0 11l-64 58c-2 3-5 3-8 0-2-2-2-5 0-8l51-50c-101-8-184-94-184-198 0-88 59-168 147-189 0 0 0 0 2 0 3 0 6 3 6 5 0 3-3 6-6 8z m243 182c0 88-59 165-144 189-3 3-8 0-8-3 0-2 0-8 5-8 80-21 136-93 136-176 0-96-72-173-165-181l51 51c2 2 2 8 0 10-3 3-8 3-11 0l-61-61c-3 0-6-3-6-5 0-3 0-3 3-6l61-61c0 0 3-3 6-3 2 0 2 0 5 3 3 3 3 8 0 11l-53 53c101 0 181 85 181 187z"/>
<glyph glyph-name="prev" unicode="&#108;" d="M378 0c-4 0-10 0-13 3l-243 243c-7 7-7 16 0 23l236 237c7 6 16 6 23 0 6-7 6-16 0-23l-224-224 233-233c7-7 7-16 0-23-3-3-6-3-12-3z"/>
<glyph glyph-name="next" unicode="&#109;" d="M134 0c-3 0-9 0-12 3-7 7-7 16 0 23l233 233-224 224c-6 7-6 16 0 23 7 6 16 6 23 0l236-237c4-3 4-7 4-13 0-6-4-10-4-13l-243-243c-3 0-9 0-13 0z"/>
<glyph glyph-name="enviar" unicode="&#110;" d="M508 263c-1 2-1 2 0 0l-114 114c-3 3-8 3-11 0-3-3-3-8 0-11l100-100-473 0c-5 0-8-3-8-8 0-4 3-7 8-7l475 0-106-107c-4-3-4-7 0-11 1-1 3-1 6-1 3 0 4 0 6 1l119 119c1 3 1 8-2 11z"/>
<glyph glyph-name="erase" unicode="&#111;" d="M278 256l228 227c6 7 6 16 0 23-7 6-16 6-23 0l-227-228-227 231c-7 3-19 3-26 0-6-3-3-19 0-26l231-227-228-227c-6-7-6-16 0-23 0-6 7-6 10-6 3 0 10 0 13 3l227 231 227-228c3-3 7-3 13-3 6 0 10 0 13 3 6 7 6 16 0 23z"/>
<glyph glyph-name="less" unicode="&#112;" d="M494 240l-476 0c-10 0-16 6-16 16 0 10 6 16 16 16l476 0c10 0 16-6 16-16 0-10-6-16-16-16z"/>
<glyph glyph-name="more" unicode="&#113;" d="M496 270l-226 0 0 226c4 10-6 16-12 16-7 0-16-6-16-16l0-226-226 0c-10 0-16-6-16-16 0-9 6-16 16-16l226 0 0-225c0-10 6-16 16-16 9 0 16 6 16 16l0 225 225 0c10 0 16 7 16 16 0 10-9 16-19 16z"/>
<glyph glyph-name="facebook" unicode="&#114;" d="M296 360l0 39c0 22 12 26 21 26l54 0 0 87-75 0c-84 0-105-65-105-108l0-48-50 0 0-100 50 0 0-256 101 0 0 256 71 0 4 39 4 61-75 0z"/>
<glyph glyph-name="down" unicode="&#115;" d="M260 110c-4 0-11 3-15 7l-241 256c-8 7-8 18 0 26 7 7 18 7 25 0l231-242 219 231c7 7 18 7 26 0 7-8 7-19 0-26l-234-245c0-4-4-7-11-7z"/>
<glyph glyph-name="list" unicode="&#116;" d="M483 402l-326 0c-9 0-15 6-15 15 0 8 6 17 15 17l326 0c9 0 17-6 17-17 0-11-6-15-17-15z m0-161l-326 0c-9 0-15 6-15 15 0 9 6 17 17 17l326 0c9 0 18-6 18-17 0-11-9-15-20-15z m0-163l-326 0c-9 0-17 6-17 17 0 11 6 18 17 18l326 0c9 0 17-7 17-18 0-11-6-17-17-17z m-411 324l-45 0c-9 0-15 6-15 15 0 8 6 17 17 17l46 0c8 0 17-6 17-17 0-11-11-15-20-15z m0-161l-45 0c-9 0-15 6-15 15 0 9 6 17 17 17l46 0c8 0 17-6 17-17 0-11-11-15-20-15z m0-163l-45 0c-9 0-17 6-17 17 0 11 6 18 17 18l45 0c9 0 18-7 18-18 0-11-9-17-18-17z"/>
<glyph glyph-name="grid" unicode="&#117;" d="M257 368c-5 0-9-5-9-10l0-67c0-5 4-10 9-10 5 0 7 5 7 10l0 70c0 4-2 7-7 7z m0-135c-5 0-9-5-9-9l0-68c0-5 4-9 9-9 5 0 10 4 10 9l0 68c-3 4-5 9-10 9z m-31 34l-70 0c-5 0-9-5-9-10 0-5 4-9 9-9l68 0c4 0 9 4 9 9 0 5-2 10-7 10z m137 0l-67 0c-5 0-10-5-10-10 0-5 5-9 10-9l67 0c5 0 10 4 10 9 0 5-5 10-10 10z m132 245l-476 0c-12 0-19-7-19-19l0-476c0-10 7-19 19-19l476 0c10 0 19 7 19 19l0 476c-2 12-9 19-19 19z m-231-476l0 51c0 4-4 9-9 9-5 0-10-5-10-9l0-51-209 0 0 214 53 0c5 0 10 5 10 10 0 4-5 9-10 9l-53 0 0 207 212 0 0-48c0-5 4-10 9-10 5 0 7 5 7 10l0 48 212 0 0-209-46 0c-5 0-9-5-9-10 0-5 4-9 9-9l46 0 0-214-212 0z"/>
<glyph glyph-name="pin" unicode="&#118;" d="M281 425l-46 0c-2 0-5-3-5-5l0-11-8 0 0-67z m-25 87c-72 0-130-59-130-130 0-69 54-125 121-130l0-243c0-5 5-9 9-9 4 0 9 4 9 9l0 243c67 5 121 61 121 130 0 71-58 130-130 130z m47-170l0-8-17 0 0-11-74 0 0 97 10 0 0 6c-1-1-3-1-5-1-4 0-8 3-8 8 0 4 4 7 8 7 4 0 8-3 8-7 0-1 0-2 0-2l74 0 0-6-58-83 48 0c3 0 5 2 5 5l0 8 9 0z"/>
<glyph glyph-name="check" unicode="&#119;" d="M127 91c-3 0-8 3-10 5l-115 134c-4 5-4 13 3 17 5 5 12 5 17-2l107-124 363 297c5 5 13 3 18-2 4-5 2-12-3-17l-373-305c-2-3-5-3-7-3z"/>
<glyph glyph-name="bag" unicode="&#106;" d="M70 22l350 0-16 351-318 0z m358-15l-366 0c-2 0-4 1-6 2-1 2-2 4-2 6l17 367c1 4 4 7 8 7l332 0c4 0 7-3 8-7l17-367c0-2-1-4-2-6-1-1-4-2-6-2z m-101 328c-5 0-8 4-8 8l0 77c0 42-34 76-76 76-42 0-77-34-77-76l0-77c0-4-3-8-7-8-5 0-8 4-8 8l0 77c0 51 41 92 92 92 50 0 91-41 91-92l0-77c0-4-3-8-7-8"/>
<glyph glyph-name="flechares" unicode="&#120;" d="M507 268l-188 187c-5 6-13 6-18 0-5-5-5-12 0-18l170-169-458 0c-8 0-13-6-13-13 0-8 5-13 13-13l450 0-170-170c-5-5-5-13 0-18 3-3 5-3 11-3 5 0 7 0 10 3l188 188c2 2 5 5 7 8 3 5 3 12-2 18z"/>
<glyph glyph-name="flecharesizq" unicode="&#121;" d="M499 267l-461 0 170 166c5 5 5 12 0 18-2 5-10 5-15 2l-188-186c-2-2-5-5-5-7 0-3 3-8 5-10 3-3 5-5 8-8l188-183c2-3 5-3 7-3 3 0 8 3 10 5 5 6 5 13 0 18l-170 163 449 0c7 0 12 5 12 13 0 7-5 12-10 12z"/>
<glyph glyph-name="link" unicode="&#122;" d="M476 477c-47 47-124 47-171 0l-85-86c-8-7-8-19 0-26 7-8 19-8 26 0l86 85c15 16 36 25 59 25 22 0 43-9 59-25 16-15 24-37 24-59 0-22-8-43-24-59l-112-112c-33-33-86-33-118 0-8 7-19 7-27 0-7-7-7-19 0-26 24-24 55-36 86-36 31 0 62 12 85 36l112 111c23 23 36 54 36 86 0 32-13 63-36 86z m-223-343l-73-72c-16-16-37-24-59-24-23 0-44 8-59 24-33 33-33 86 0 118l105 106c16 15 37 24 59 24 23 0 44-9 59-24 8-8 20-8 27 0 7 7 7 19 0 26-47 47-124 47-171 0l-106-105c-22-23-35-53-35-86 0-32 13-63 35-85 23-23 54-36 86-36 32 0 63 13 85 36l73 72c7 7 7 19 0 26-7 8-19 8-26 0z"/>
<glyph glyph-name="whatsapp" unicode="&#65;" d="M373 205c-6 3-37 19-43 21-6 2-10 3-15-3-4-7-16-21-20-25-3-4-7-5-14-2-6 3-26 10-51 32-19 16-31 37-35 44-4 6-1 9 3 13 2 2 6 7 9 11 3 3 4 6 7 10 2 4 1 8-1 11-2 3-14 35-20 47-5 13-10 11-14 11-4 0-8 0-12 0-4 0-11-1-17-7-6-7-22-22-22-53 0-32 22-62 26-66 3-4 44-68 108-96 16-6 27-10 37-13 15-5 29-4 40-3 12 2 37 16 43 31 5 14 5 27 4 30-2 2-6 4-13 7m-116-158l0 0c-38 0-75 10-108 30l-8 4-80-21 22 78-5 8c-22 34-33 72-33 112 0 117 95 211 212 211 57 0 110-22 150-62 40-40 62-93 62-149 0-116-95-211-212-211m180 391c-48 48-112 74-180 74-140 0-255-114-255-254 0-44 12-88 34-127l-36-131 135 35c37-20 79-31 122-31l0 0c141 0 255 114 255 254 0 68-26 132-75 180"/>
<glyph glyph-name="dudas" unicode="&#66;" d="M241 488c-121 0-220-99-220-220l0-212c0-4 4-8 8-8l212 0c121 0 220 99 220 220 0 121-99 220-220 220m0-460l-212 0c-16 0-28 12-28 28l0 212c0 133 107 241 240 241 133 0 240-108 240-241 0-132-107-240-240-240m-6 102c-6 0-11 4-11 10 0 6 5 10 11 10 5 0 10-4 10-10 0-6-5-10-10-10m0 46c-6 0-10 4-10 10l0 6c0 28 18 53 46 61 27 8 45 34 45 62 0 17-6 33-19 45-12 12-28 19-45 19-36 0-64-29-64-64 0-6-5-10-11-10-5 0-10 4-10 10 0 47 38 85 85 85 22 0 43-9 60-26 16-16 25-37 25-59 0-37-25-71-61-82-18-5-31-22-31-41l0-6c0-6-5-10-10-10"/>
<glyph glyph-name="menu" unicode="&#67;" d="M500 414l-488 0c-7 0-12 5-12 13 0 7 5 12 12 12l488 0c7 0 12-5 12-12 0-8-5-13-12-13z m0-170l-488 0c-7 0-12 5-12 12 0 7 5 12 12 12l488 0c7 0 12-5 12-12 0-7-5-12-12-12z m0-171l-488 0c-7 0-12 5-12 12 0 8 5 13 12 13l488 0c7 0 12-5 12-13 0-7-5-12-12-12z"/>
<glyph glyph-name="tel" unicode="&#69;" d="M94 475c-13 0-29-17-42-31-1-1-2-2-3-3-3-3-5-5-7-7-7-7-9-38 8-85 22-57 65-120 121-176 57-57 120-100 176-121 47-18 79-16 86-8 3 3 6 6 10 9 14 14 31 30 31 43-1 8-9 20-24 32-24 19-41 28-51 27-9-1-16-9-30-22l-5-6c-14-14-41-24-88 6-21 14-47 37-77 67-38 38-63 68-76 93-20 38-9 60 3 72l5 6c14 13 21 21 22 29 1 11-7 28-26 51-12 15-24 24-32 24z m315-474c-21 0-46 6-75 16-61 24-128 70-189 130-60 60-106 127-129 189-21 56-21 103 0 124 2 2 4 4 6 6 1 1 2 3 4 4 17 19 39 42 68 42l2 0c20-1 40-14 60-38 26-33 36-56 34-78-3-22-17-36-33-52l-5-5c-5-5-4-15 4-29 11-21 34-49 69-84 28-28 52-49 71-62 10-6 33-19 42-11l5 6c15 15 30 30 51 32 22 3 46-8 79-34 24-20 37-40 38-60 1-29-23-52-43-70-3-4-6-7-9-9-11-11-28-17-50-17z"/>
</font>
</defs>
</svg>
